<svg xmlns="http://www.w3.org/2000/svg" xml:space="preserve" width="251" height="251" style="enable-background:new 0 0 251 251"><font horiz-adv-x="1000"><font-face font-family="Montserrat-Bold" underline-position="-100" underline-thickness="50"/><glyph d="M597 364c57 30 93 84 93 154 0 109-90 182-265 182H83V0h362c184 0 280 70 280 191 0 88-50 148-128 173M405 578c79 0 122-27 122-82s-43-83-122-83H244v165m189-456H244v173h189c84 0 129-28 129-87 0-60-45-86-129-86z" horiz-adv-x="765" unicode="B"/><glyph d="M418-12c122 0 223 44 289 125l-104 96c-47-55-106-83-176-83-131 0-224 92-224 224s93 224 224 224c70 0 129-28 176-82l104 96c-66 80-167 124-288 124-218 0-380-151-380-362S201-12 418-12z" horiz-adv-x="733" unicode="C"/><glyph d="M83 0h318c229 0 386 138 386 350S630 700 401 700H83m162-567v434h148c139 0 230-83 230-217s-91-217-230-217z" horiz-adv-x="826" unicode="D"/><glyph d="M244 130v162h325v126H244v152h368v130H83V0h542v130z" horiz-adv-x="671" unicode="E"/><glyph d="M563 700V424H245v276H83V0h162v287h318V0h162v700z" horiz-adv-x="808" unicode="H"/><glyph d="M83 0h162v700H83z" horiz-adv-x="328" unicode="I"/><glyph d="M212-12c165 0 252 85 252 258v454H57V570h246V237c0-77-34-116-99-116-50 0-92 26-130 77L-16 90C35 24 118-12 212-12z" horiz-adv-x="541" unicode="J"/><glyph d="M703 0 546 225c91 39 144 116 144 221 0 157-117 254-304 254H83V0h162v195h149L529 0m-3 446c0-76-50-122-149-122H245v244h132c99 0 149-45 149-122z" horiz-adv-x="735" unicode="R"/><glyph d="M228 0h162v568h224v132H4V568h224z" horiz-adv-x="618" unicode="T"/><glyph d="M986 700 823 204 663 700H513L348 208 190 700H22L252 0h173l159 474L738 0h174l229 700z" horiz-adv-x="1163" unicode="W"/><glyph d="m252 132 383 463v105H46V568h376L38 105V0h612v132z" horiz-adv-x="671" unicode="Z"/><glyph d="M83 243h124l31 457H52M145-8c56 0 96 41 96 91 0 51-40 89-96 89s-96-38-96-89c0-50 40-91 96-91z" horiz-adv-x="289" unicode="!"/><glyph horiz-adv-x="283"/></font><font horiz-adv-x="1000"><font-face font-family="Cargan-Light" underline-position="-75" underline-thickness="50"/><glyph horiz-adv-x="224"/><glyph d="M41 190h72c2-37 8-64 17-79 8-16 25-29 52-40 26-11 61-17 104-17 39 0 70 3 95 10s43 17 55 30c11 13 19 27 23 41 3 14 5 31 5 52 0 35-8 61-25 78s-55 32-112 44l-120 26c-49 11-85 30-108 59s-34 69-34 121c0 66 20 116 59 151 39 34 101 51 188 51 61 0 107-7 140-21s55-36 66-66c7-19 11-49 11-90h-71c-2 32-6 53-12 63-17 33-62 49-137 49-61 0-104-11-129-33-26-22-39-54-39-96 0-37 8-64 25-81 16-17 48-31 97-42l116-25c62-13 105-33 128-59s35-66 35-121c0-71-18-123-55-156S381-11 282-11C162-11 88 19 59 79c-12 25-18 62-18 111z" horiz-adv-x="575" unicode="S"/><glyph d="M577 0H25v52l441 591H121l-2-83H57v146h501v-56L121 63h391l7 99 61-2z" horiz-adv-x="611" unicode="Z"/><glyph d="M384 65c-19-51-73-76-160-76C109-11 51 39 51 140c0 56 20 95 60 116 32 18 84 27 157 27 48 0 84-1 109-4v53c0 35-3 61-10 76-13 27-49 41-108 41-37 0-64-5-80-15-17-10-27-25-30-46-1-7-2-16-2-26H79v17c0 88 61 132 182 132 79 0 130-13 155-40 21-23 31-64 31-122V110c0-35 12-53 37-53 15 0 28 1 37 3l6-60c-15-4-35-6-58-6-31 0-52 6-64 19-13 13-20 30-21 52m-7 157c-22 2-56 3-103 3-65 0-108-8-131-24-16-13-24-33-24-60 0-61 40-92 119-92 33 0 62 5 85 16 23 10 37 23 44 38s10 34 10 57z" horiz-adv-x="560" unicode="a"/><glyph d="m165 54-2-55h-62v687H34v62h138V432c22 52 79 78 170 78 68 0 117-19 147-57 29-39 44-103 44-194 0-71-9-127-26-167-17-41-42-68-73-82-31-15-73-22-126-22-34 0-64 6-90 18-27 12-44 28-53 48m7 280V159c0-28 4-49 12-63 7-11 21-22 42-32s46-15 77-15c64 0 107 16 128 47s31 83 31 158c0 68-9 117-27 148-19 30-57 45-116 45-37 0-68-6-95-18-27-13-44-31-49-56-2-8-3-21-3-39z" horiz-adv-x="585" unicode="b"/><glyph d="M419 63c-23-49-76-74-158-74-73 0-126 19-159 57-33 37-50 101-50 192 0 102 18 173 55 213 37 39 95 59 176 59 68 0 111-18 129-53v229h-69v62h140V111c0-19 2-32 7-41s14-13 29-13c14 0 26 1 36 3l7-60c-21-4-40-6-57-6-31 0-53 6-65 17-13 11-20 29-21 52m-7 119v156c0 19-1 34-4 45-12 43-53 64-122 64-62 0-105-15-128-46s-35-83-35-158c0-67 12-115 36-146s62-46 115-46c77 0 121 25 134 74 3 10 4 29 4 57z" horiz-adv-x="597" unicode="d"/><glyph d="M124 233c1-68 14-115 37-142s65-40 126-40c64 0 118 13 163 38l22-54C422 4 356-11 275-11c-84 0-142 21-174 62-33 41-49 106-49 197 0 95 18 163 55 203 36 39 93 59 172 59 75 0 126-16 153-48s40-82 40-150c0-37-1-63-3-79m-344 60h278c1 5 1 15 1 31 0 44-9 77-26 98-18 21-53 31-104 31-53 0-91-13-113-38-23-26-35-67-36-122z" horiz-adv-x="522" unicode="e"/><glyph d="M126 194c-41 24-61 71-61 140 0 117 66 176 199 176 53 0 91-9 115-26 8 38 34 57 79 57 20 0 38-2 53-5l-8-67c-18 3-34 5-47 5-24 0-36-8-36-25 0-5 3-13 8-22 13-21 20-50 20-88 0-117-64-175-193-175-19 0-36 1-51 4-16 2-26 3-29 3-13 0-21-4-26-11-7-10-11-25-11-46 0-15 3-25 10-30 6-5 15-9 28-12 17-3 60-4 130-5 77-1 128-10 154-28 25-18 38-57 38-118 0-57-17-99-52-127s-98-42-188-42c-45 0-82 4-111 12s-51 20-64 35c-14 15-23 31-28 48-5 16-8 35-8 58s5 46 14 70l66-10c-7-15-10-37-10-64 0-59 49-89 147-89 64 0 107 9 130 27 22 18 33 44 33 78 0 31-6 52-19 63S367-3 324-1c-13 1-33 1-60 2-28 1-53 2-74 3s-37 2-48 4c-46 8-69 38-69 90 0 49 18 81 53 96m7 144c0-48 10-80 31-95 20-16 50-24 90-24 41 0 72 9 94 26s33 48 33 92-10 74-30 91c-21 17-51 25-91 25s-71-8-93-25c-23-17-34-47-34-90z" horiz-adv-x="516" unicode="g"/><glyph d="M252 0H47v62h66v624H45v62h139V62h68z" horiz-adv-x="290" unicode="l"/><glyph d="M262 0H57v62h66v333c0 30-10 45-31 45-17 0-30-1-37-2l-4 61c30 3 50 5 61 5 31 0 51-6 62-17 11-12 16-31 16-58 9 28 31 49 66 62s72 19 112 19c43 0 75-5 94-16s33-27 41-48c6-17 9-50 9-101V95c0-25 11-38 32-38 13 0 27 1 41 3l5-60c-19-5-39-7-61-7-36 0-60 8-71 23-11 14-17 36-17 67v256c0 35-2 58-7 70-11 24-41 36-92 36-29 0-55-4-77-11-23-8-39-16-48-24-11-9-17-18-20-27-3-11-4-23-4-36V62h69z" horiz-adv-x="625" unicode="n"/><glyph d="M503 254c0-70-9-124-26-163s-42-66-73-80c-32-15-75-22-130-22-39 0-72 4-98 11-27 7-50 21-69 40s-33 46-42 81c-9 34-13 77-13 130s6 97 17 132 28 62 51 80c22 17 46 30 71 37s56 10 91 10c38 0 70-3 95-10s47-19 68-36c20-18 35-44 44-78 9-35 14-79 14-132m-72-5c0 77-11 130-34 158s-63 42-118 42c-54 0-93-14-118-42s-38-79-38-154c0-80 12-134 35-161s62-41 119-41c38 0 67 5 88 14s37 29 49 58c11 29 17 71 17 126z" horiz-adv-x="555" unicode="o"/><glyph d="M333 6C308-4 275-9 234-9c-47 0-79 12-96 36-15 23-23 59-23 109v300H43v62h73l4 137h66V498h117v-62H186V148c0-38 4-63 13-74 9-13 27-19 53-19 28 0 51 3 70 10z" horiz-adv-x="336" unicode="t"/><glyph d="M440 69c-10-28-32-48-65-61-34-13-72-19-114-19-43 0-74 6-94 17s-34 27-43 48c-7 19-10 54-10 103v279H45v62h140V162c0-35 3-59 9-72 11-25 42-37 94-37s92 12 121 36c11 7 17 16 20 26 2 9 3 21 3 36v285h-70v62h142V106c0-17 3-30 8-37 5-8 14-12 29-12 12 0 25 1 38 4l7-60c-19-5-41-7-68-7-30 0-50 7-61 21-11 13-16 31-17 54z" horiz-adv-x="616" unicode="u"/></font>
</svg>
